StasyQVR Double Scene 024: NessaQ (VRmix) (4K 360° 3D)

seeders: 3
leechers: 0
updated:
Added by VRmix in Other


ᕦ( ▨̅ ͜▨̅ )ᕥ SPECIAL DEAL - OFFER ᕦ( ▨̅ ͜▨̅ )ᕥ
strongly advises you to use Nord while downloading torrents.
Nord is the safest on the market, and the fastest as well.
No IP Log is saved using Nord, avoid other providers and choose the safest one.
Click here and buy Nord it's on rebates today!
We were able to verify your IP: 34.204.191.0, country: United States and you are near by: Ashburn.
If we can do that, others can too, protect your privacy with Nord.
is trying the best for you!
ᕦ( ▨̅ ͜▨̅ )ᕥ SPECIAL DEAL - OFFER ᕦ( ▨̅ ͜▨̅ )ᕥ


Description

Stars: NessaQ

2 Scenes in 1 -> Side By Side -> 360° 3D ->See sample or pics!


L StasyQVR Stunning Blonde Strips Off Bathing Suit (NessaQ)
R StasyQVR Sexy Blonde Strips and Shows Her Tight Body (NessaQ)


4096*2048 @59.940FPS  


 

 

 


General 
Format : MPEG-4 
Format profile : Base Media / Version 2 
Codec ID : mp42 (isom/mp42) 
File size : 1.24 GiB 
Duration : 6 min 49 s 
Overall bit rate mode : Variable 
Overall bit rate : 26.1 Mb/s 
Encoded date : UTC 2019-11-30 17:33:38 
Tagged date : UTC 2019-11-30 17:33:38 

Video 
ID : 1 
Format : HEVC 
Format/Info : High Efficiency Video Coding 
Format profile : [email protected]@High 
Codec ID : hvc1 
Codec ID/Info : High Efficiency Video Coding 
Duration : 6 min 49 s 
Bit rate : 25.9 Mb/s 
Width : 4 096 pixels 
Height : 2 048 pixels 
Display aspect ratio : 2.000 
Frame rate mode : Constant 
Frame rate : 59.940 (60000/1001) FPS 
Color space : YUV 
Chroma subsampling : 4:2:0 
Bit depth : 8 bits 
Bits/(Pixel*Frame) : 0.052 
Stream size : 1.23 GiB (99%) 
Language : English 
Encoded date : UTC 2019-11-30 17:33:43 
Tagged date : UTC 2019-11-30 17:33:43 
Codec configuration box : hvcC 

Audio 
ID : 2 
Format : AAC LC 
Format/Info : Advanced Audio Codec Low Complexity 
Codec ID : mp4a-40-2 
Duration : 6 min 49 s 
Bit rate mode : Variable 
Bit rate : 192 kb/s 
Maximum bit rate : 472 kb/s 
Channel(s) : 2 channels 
Channel layout : L R 
Sampling rate : 48.0 kHz 
Frame rate : 46.875 FPS (1024 SPF) 
Compression mode : Lossy 
Stream size : 9.24 MiB (1%) 
Language : English 
Encoded date : UTC 2019-11-30 17:33:43 
Tagged date : UTC 2019-11-30 17:33:43

Sharing Widget


Download torrent
Size: 1.3 GB
seeders:3
leechers:0
StasyQVR Double Scene 024: NessaQ (VRmix) (4K 360° 3D) - (1395864371 Bytes)



To share this torrent use the code below and insert it into comments, status messages, forum posts or your signature.

Torrent: StasyQVR Double Scene 024: NessaQ (VRmix) (4K 360° 3D)

Trackers

tracker name
UDP://TRACKER.LEECHERS-PARADISE.ORG:6969/ANNOUNCE
UDP://TRACKER.COPPERSURFER.TK:6969/ANNOUNCE
UDP://TRACKER.OPENTRACKR.ORG:1337/ANNOUNCE
UDP://TRACKER.ZER0DAY.TO:1337/ANNOUNCE
UDP://EDDIE4.NL:6969/ANNOUNCE
udp://tracker.openbittorrent.com:80/announce
udp://tracker.zer0day.to:1337/announce
udp://tracker.leechers-paradise.org:6969/announce
udp://coppersurfer.tk:6969/announce
µTorrent compatible trackers list

Locations

name
KickassTorrents
Torrent hash: E0E9A4AF49EADACAD3B08023620751767F1A23FE

ᕦ( ▨̅ ͜▨̅ )ᕥ SPECIAL DEAL - OFFER ᕦ( ▨̅ ͜▨̅ )ᕥ
strongly advises you to use Nord while downloading torrents.
Nord is the safest on the market, and the fastest as well.
No IP Log is saved using Nord, avoid other providers and choose the safest one.
Click here and buy Nord it's on rebates today!
We were able to verify your IP: 34.204.191.0, country: United States and you are near by: Ashburn.
If we can do that, others can too, protect your privacy with Nord.
is trying the best for you!
ᕦ( ▨̅ ͜▨̅ )ᕥ SPECIAL DEAL - OFFER ᕦ( ▨̅ ͜▨̅ )ᕥ

All Comments

*comments box temporarily disabled*
Report a bug