Star Wars The Clone Wars S06E1 13 ENG AC3 ITA ENG SUB WEBRip 720p...

seeders: 2
leechers: 0
updated:
Added by ZMachine95 in Other


ᕦ( ▨̅ ͜▨̅ )ᕥ SPECIAL DEAL - OFFER ᕦ( ▨̅ ͜▨̅ )ᕥ
strongly advises you to use Nord while downloading torrents.
Nord is the safest on the market, and the fastest as well.
No IP Log is saved using Nord, avoid other providers and choose the safest one.
Click here and buy Nord it's on rebates today!
We were able to verify your IP: 34.204.191.0, country: United States and you are near by: Ashburn.
If we can do that, others can too, protect your privacy with Nord.
is trying the best for you!
ᕦ( ▨̅ ͜▨̅ )ᕥ SPECIAL DEAL - OFFER ᕦ( ▨̅ ͜▨̅ )ᕥ


Description

Star Wars The Clone Wars S06E1-13

Complete Season 6 - ZMachine  

EPISODES:  
[*]Episode 01 - The Unknown 
[*]Episode 02 - Conspiracy 
[*]Episode 03 - Fugitive 
[*]Episode 04 - Orders 
[*]Episode 05 - An Old Friend 
[*]Episode 06 - The Rise of Clovis 
[*]Episode 07 - Crisis at the heart 
[*]Episode 08 - The Disappeared, Part 1 
[*]Episode 09 - The Disappeared, Part 2 
[*]Episode 10 - The Lost One 
[*]Episode 11 - Voices 
[*]Episode 12 - Destiny 
[*]Episode 13 - Sacrifice

:: Screenshots ::  

 
 
 
 
 
 

:: Mediainfo ::  

General
Unique ID : 248683882926149839503205439171360283044 (0xBB16C60FFBE60B6AAEE22B2D68BD59A4)
Complete name : E:DOWNLOADTORRENTStar.Wars.The.Clone.Wars.S06E1-13.ENG.AC3.ITA.ENG.SUB.WEBRip.720p.X264_ZMachineStar.Wars.The.Clone.Wars.S06E13.Sacrifice.ENG.AC3.ITA.ENG.SUB.WEBRip.720p.X264_ZMachine.mkv
Format : Matroska
Format version : Version 4 / Version 2
File size : 458 MiB
Duration : 22mn 18s
Overall bit rate : 2 871 Kbps
Movie name : Star Wars: The Clone Wars - S06E13 - Sacrifice 
Encoded date : UTC 2014-10-07 18:22:57
Writing application : mkvmerge v7.0.0 ('Where We Going') 64bit built on Jun 9 2014 15:16:27
Writing library : libebml v1.3.0 + libmatroska v1.4.1

Video
ID : 1
Format : AVC
Format/Info : Advanced Video Codec
Format profile : [email protected] 
Format settings, CABAC : Yes
Format settings, ReFrames : 5 frames
Codec ID : V_MPEG4/ISO/AVC
Duration : 22mn 18s
Bit rate : 2 174 Kbps
Width : 1 280 pixels
Height : 544 pixels
Display aspect ratio : 2.35:1
Frame rate mode : Constant
Frame rate : 23.976 fps
Color space : YUV
Chroma subsampling : 4:2:0
Bit depth : 8 bits
Scan type : Progressive
Bits/(Pixel*Frame) : 0.130
Stream size : 347 MiB (76%)
Title : Video H.264 (ZMachine)
Default : Yes
Forced : No
Matrix coefficients : BT.709

Audio
ID : 2
Format : AC-3
Format/Info : Audio Coding 3
Mode extension : CM (complete main)
Format settings, Endianness : Big
Codec ID : A_AC3
Duration : 22mn 18s
Bit rate mode : Constant
Bit rate : 640 Kbps
Channel(s) : 6 channels
Channel positions : Front: L C R, Side: L R, LFE
Sampling rate : 48.0 KHz
Bit depth : 16 bits
Compression mode : Lossy
Stream size : 102 MiB (22%)
Title : Audio AC3
Language : English
Default : Yes
Forced : No

Text #1
ID : 3
Format : UTF-8
Codec ID : S_TEXT/UTF8
Codec ID/Info : UTF-8 Plain Text
Title : Sub
Language : Italian
Default : Yes
Forced : No

Text #2
ID : 4
Format : UTF-8
Codec ID : S_TEXT/UTF8
Codec ID/Info : UTF-8 Plain Text
Title : Sub
Language : English
Default : No
Forced : No

Sharing Widget


Download torrent
Size: 5.4 GB
seeders:2
leechers:0
Star Wars The Clone Wars S06E1 13 ENG AC3 ITA ENG SUB WEBRip 720p... - (5798205849 Bytes)



To share this torrent use the code below and insert it into comments, status messages, forum posts or your signature.

Torrent: Star Wars The Clone Wars S06E1 13 ENG AC3 ITA ENG SUB WEBRip 720p...

Trackers

tracker name
http://tracker.tntvillage.scambioetico.org:2710/announce
udp://tracker.tntvillage.scambioetico.org:2710/announce
udp://9.rarbg.com:2710/announce
udp://11.rarbg.com:2710/announce
http://exodus.desync.com:6969/announce
udp://exodus.desync.com:6969/announce
udp://tracker.istole.it:80/announce
udp://tracker.prq.to/announce
udp://tracker.token.ro:80/announce
udp://tracker.publicbt.com:80/announce
udp://open.demonii.com:1337/announce
udp://tracker.openbittorrent.com:80/announce
udp://tracker.zer0day.to:1337/announce
udp://tracker.leechers-paradise.org:6969/announce
udp://coppersurfer.tk:6969/announce
µTorrent compatible trackers list

Locations

name
KickassTorrents
Torrent hash: D994C4D49A38D7CAD194F6B51E824BB3FA0826BC

ᕦ( ▨̅ ͜▨̅ )ᕥ SPECIAL DEAL - OFFER ᕦ( ▨̅ ͜▨̅ )ᕥ
strongly advises you to use Nord while downloading torrents.
Nord is the safest on the market, and the fastest as well.
No IP Log is saved using Nord, avoid other providers and choose the safest one.
Click here and buy Nord it's on rebates today!
We were able to verify your IP: 34.204.191.0, country: United States and you are near by: Ashburn.
If we can do that, others can too, protect your privacy with Nord.
is trying the best for you!
ᕦ( ▨̅ ͜▨̅ )ᕥ SPECIAL DEAL - OFFER ᕦ( ▨̅ ͜▨̅ )ᕥ

All Comments

*comments box temporarily disabled*
Report a bug