Star Wars The Clone Wars ITA ENG AC3 BDRip 1080p X265 ZMachine

seeders: 3
leechers: 1
updated:
Added by ZMachine95 in Other


ᕦ( ▨̅ ͜▨̅ )ᕥ SPECIAL DEAL - OFFER ᕦ( ▨̅ ͜▨̅ )ᕥ
strongly advises you to use Nord while downloading torrents.
Nord is the safest on the market, and the fastest as well.
No IP Log is saved using Nord, avoid other providers and choose the safest one.
Click here and buy Nord it's on rebates today!
We were able to verify your IP: 34.204.191.0, country: United States and you are near by: Ashburn.
If we can do that, others can too, protect your privacy with Nord.
is trying the best for you!
ᕦ( ▨̅ ͜▨̅ )ᕥ SPECIAL DEAL - OFFER ᕦ( ▨̅ ͜▨̅ )ᕥ


Description

[align=center] 

 

 
clicca nel banner qui sopra per scoprire tutte le mie release su Star Wars 

 

Star Wars: The Clone Wars Movie - ZMachine  

[color=crimson]:: Screenshots ::  

 
 
 
 
 
 

:: Mediainfo ::  

General
Unique ID : 185465094234736953919388960005141372868 (0x8B874721FFA6B70CA1CBB03073E51FC4)
Complete name : F:\Backup Torrents\TheCloneWars\Star.Wars.The.Clone.Wars.ITA.ENG.AC3.BDRip.1080p.X265_ZMachine.mkv
Format : Matroska
Format version : Version 4 / Version 2
File size : 2.73 GiB
Duration : 1h 38mn
Overall bit rate : 3 970 Kbps
Encoded date : UTC 2014-10-25 12:04:51
Writing application : mkvmerge v7.2.0 ('On Every Street') 32bit built on Sep 13 2014 15:42:11
Writing library : libebml v1.3.0 + libmatroska v1.4.1

Video
ID : 1
Format : HEVC
Format/Info : High Efficiency Video Coding
Codec ID : V_MPEGH/ISO/HEVC
Duration : 1h 38mn
Bit rate : 2 995 Kbps
Width : 1 920 pixels
Height : 800 pixels
Display aspect ratio : 2.40:1
Frame rate mode : Constant
Frame rate : 23.976 fps
Bits/(Pixel*Frame) : 0.081
Stream size : 2.06 GiB (75%)
Title : VIdeo H.265 (Encoded by ZMachine)
Default : Yes
Forced : Yes

Audio #1
ID : 2
Format : AC-3
Format/Info : Audio Coding 3
Mode extension : CM (complete main)
Format settings, Endianness : Big
Codec ID : A_AC3
Duration : 1h 38mn
Bit rate mode : Constant
Bit rate : 448 Kbps
Channel(s) : 6 channels
Channel positions : Front: L C R, Side: L R, LFE
Sampling rate : 48.0 KHz
Bit depth : 16 bits
Compression mode : Lossy
Stream size : 315 MiB (11%)
Title : Audio AC3
Language : Italian
Default : Yes
Forced : No

Audio #2
ID : 3
Format : AC-3
Format/Info : Audio Coding 3
Mode extension : CM (complete main)
Format settings, Endianness : Big
Codec ID : A_AC3
Duration : 1h 38mn
Bit rate mode : Constant
Bit rate : 448 Kbps
Channel(s)  : 6 channels
Channel positions : Front: L C R, Side: L R, LFE
Sampling rate : 48.0 KHz
Bit depth : 16 bits
Compression mode : Lossy
Stream size : 315 MiB (11%)
Title : Audio AC3
Language : English
Default : No
Forced : No

Text #1
ID : 4
Format : ASS
Codec ID : S_TEXT/ASS
Codec ID/Info : Advanced Sub Station Alpha
Compression mode : Lossless
Title : Sub Forced
Language : Italian
Default : Yes
Forced : Yes

Text #2
ID : 5
Format : ASS
Codec ID : S_TEXT/ASS
Codec ID/Info : Advanced Sub Station Alpha
Compression mode : Lossless
Title : Sub
Language : Italian
Default : No
Forced : No

Text #3
ID : 6
Format : ASS
Codec ID : S_TEXT/ASS
Codec ID/Info : Advanced Sub Station Alpha
Compression mode : Lossless
Title : Sub
Language : English
Default : No
Forced : No

Menu
00:00:00.000 : Opening Logo
00:00:15.215 : The Clone Wars
00:02:33.186 : Dispatching a Messenger
00:03:22.468 : Battle Position
00:07:11.898 : The New Padawan
00:10:22.121 : The Sith Conspire
00:10:51.350 : Rex and Ahsoka
00:13:03.716 : Planning the Strike
00:14:32.371 : Scout Report
00:15:21.186 : Beneath the Shields
00:17:02.421 : The Battle Is Joined
00:21:00.759 : Reinforcements Arrive
00:21:36.495 : Surrounded by Droids
00:23:10.822 : The Negotiator
00:25:20.218 : Master and Apprentice
00:26:16.541 : New Assignments
00:28:08.319 : Return of the Hunters
00:29:27.065 : War Stories
00:31:07.966 : Obi-Wan and Jabba
00:33:02.613 : Vertical Assault
00:38:42.687 : Inside the Monastery
00:41:29.119 : Dooku's Play
00:42:35.452 : Securing the Huttlet
00:44:16.587 : Proof of Treachery
00:45:06.036 : Separatist Counterassault
00:47:39.990 : Breaching the Castle
00:49:29.266 : Ventress in Control
00:50:32.229 : Launch All Fighters
00:54:47.984 : Spice Freighter
00:56:20.710  : Last Stand
00:57:50.500 : The Mission Comes First
01:01:47.537 : Pursuit of the Twilight
01:04:05.308 : Obi-Wan vs. Ventress
01:06:16.539 : Through Hyperspace
01:08:05.815 : The Lies of Dooku
01:09:24.226 : Dogfight Over Tattoine
01:13:35.043 : Grand Adventure of Politics
01:15:36.298 : Stranded in the Desert
01:16:27.516 : Ziro the Hutt
01:17:32.314 : Padmé Confronts Ziro
01:19:08.710 : Exposing the Truth
01:23:05.146 : A Call for Help
01:23:51.326 : Separate Duels
01:27:36.918 : Showdown
01:29:49.150 : Conspiracy Revealed/Reunion
01:33:55.162 : End Credits


Sharing Widget


Download torrent
Size: 2.7 GB
seeders:3
leechers:1
Star Wars The Clone Wars ITA ENG AC3 BDRip 1080p X265 ZMachine - (2899102924 Bytes)



To share this torrent use the code below and insert it into comments, status messages, forum posts or your signature.

Torrent: Star Wars The Clone Wars ITA ENG AC3 BDRip 1080p X265 ZMachine

Trackers

tracker name
http://tracker.tntvillage.scambioetico.org:2710/announce
udp://tracker.tntvillage.scambioetico.org:2710/announce
udp://11.rarbg.com:2710/announce
udp://9.rarbg.com:2710/announce
http://exodus.desync.com:6969/announce
udp://exodus.desync.com:6969/announce
udp://tracker.istole.it:80/announce
udp://tracker.prq.to/announce
udp://tracker.token.ro:80/announce
udp://tracker.publicbt.com:80/announce
udp://open.demonii.com:1337/announce
udp://tracker.openbittorrent.com:80/announce
udp://tracker.zer0day.to:1337/announce
udp://tracker.leechers-paradise.org:6969/announce
udp://coppersurfer.tk:6969/announce
µTorrent compatible trackers list

Locations

name
KickassTorrents
Torrent hash: E49DE7886F003A2D4B57290211F5ADC23E010531

ᕦ( ▨̅ ͜▨̅ )ᕥ SPECIAL DEAL - OFFER ᕦ( ▨̅ ͜▨̅ )ᕥ
strongly advises you to use Nord while downloading torrents.
Nord is the safest on the market, and the fastest as well.
No IP Log is saved using Nord, avoid other providers and choose the safest one.
Click here and buy Nord it's on rebates today!
We were able to verify your IP: 34.204.191.0, country: United States and you are near by: Ashburn.
If we can do that, others can too, protect your privacy with Nord.
is trying the best for you!
ᕦ( ▨̅ ͜▨̅ )ᕥ SPECIAL DEAL - OFFER ᕦ( ▨̅ ͜▨̅ )ᕥ

All Comments

*comments box temporarily disabled*
Report a bug