Star Wars The Clone Wars ITA ENG AC3 BDRip 1080p X264 ZMachine

seeders: 5
leechers: 0
updated:
Added by ZMachine95 in Other


ᕦ( ▨̅ ͜▨̅ )ᕥ SPECIAL DEAL - OFFER ᕦ( ▨̅ ͜▨̅ )ᕥ
strongly advises you to use Nord while downloading torrents.
Nord is the safest on the market, and the fastest as well.
No IP Log is saved using Nord, avoid other providers and choose the safest one.
Click here and buy Nord it's on rebates today!
We were able to verify your IP: 3.234.208.66, country: United States.
If we can do that, others can too, protect your privacy with Nord.
is trying the best for you!
ᕦ( ▨̅ ͜▨̅ )ᕥ SPECIAL DEAL - OFFER ᕦ( ▨̅ ͜▨̅ )ᕥ


Description

Star Wars: The Clone Wars - ZMachine  

:: Screenshots ::  

 
 
 
 
 
 

:: Mediainfo ::  

General
Unique ID : 252070805009040431620951277926604532693 (0xBDA31236B520DC67BF9DCAD3B77EEBD5)
Complete name : E:\clonewars\Star.Wars.The.Clone.Wars.ITA.ENG.AC3.BDRip.1080p.X264_ZMachine.mkv
Format : Matroska
Format version : Version 4 / Version 2
File size : 2.60 GiB
Duration : 1h 38mn
Overall bit rate : 3 782 Kbps
Movie name : Star Wars: The Clone Wars - ZMachine
Encoded date : UTC 2014-11-06 18:34:33
Writing application : mkvmerge v7.2.0 ('On Every Street') 32bit built on Sep 13 2014 15:42:11
Writing library : Lavf54.63.104

Video
ID : 1
Format : AVC
Format/Info : Advanced Video Codec
Format profile : [email protected] 
Format settings, CABAC : Yes
Format settings, ReFrames : 5 frames
Codec ID : V_MPEG4/ISO/AVC
Duration : 1h 38mn
Bit rate : 2 500 Kbps
Width : 1 920 pixels
Height : 800 pixels
Display aspect ratio : 2.40:1
Frame rate mode : Constant
Frame rate : 23.976 fps
Color space : YUV
Chroma subsampling : 4:2:0
Bit depth : 8 bits
Scan type : Progressive
Bits/(Pixel*Frame) : 0.068
Stream size : 1.67 GiB (64%)
Title : Video H.264 (Encoded by ZMachine)
Writing library : x264 core 142 r2431 ac76440
Encoding settings : cabac=1 / ref=5 / deblock=1:-1:-1 / analyse=0x3:0x133 / me=umh / subme=10 / psy=1 / psy_rd=1.00:0.15 / mixed_ref=1 / me_range=24 / chroma_me=1 / trellis=2 / 8x8dct=1 / cqm=0 / deadzone=21,11 / fast_pskip=1 / chroma_qp_offset=-3 / threads=30 / lookahead_threads=5 / sliced_threads=0 / nr=0 / decimate=1 / interlaced=0 / bluray_compat=0 / constrained_intra=0 / bframes=8 / b_pyramid=2 / b_adapt=2 / b_bias=0 / direct=3 / weightb=1 / open_gop=0 / weightp=2 / keyint=240 / keyint_min=23 / scenecut=40 / intra_refresh=0 / rc_lookahead=60 / rc=2pass / mbtree=1 / bitrate=2500 / ratetol=1.0 / qcomp=0.60 / qpmin=10 / qpmax=51 / qpstep=4 / cplxblur=20.0 / qblur=0.5 / ip_ratio=1.40 / aq=1:1.00
Default : Yes
Forced : No

Audio #1
ID : 2
Format : AC-3
Format/Info : Audio Coding 3
Mode extension : CM (complete main)
Format settings, Endianness  : Big
Codec ID : A_AC3
Duration : 1h 38mn
Bit rate mode : Constant
Bit rate : 640 Kbps
Channel(s) : 6 channels
Channel positions : Front: L C R, Side: L R, LFE
Sampling rate : 48.0 KHz
Bit depth : 16 bits
Compression mode : Lossy
Stream size : 451 MiB (17%)
Title : Audio AC3
Language : Italian
Default : Yes
Forced : No

Audio #2
ID : 3
Format : AC-3
Format/Info : Audio Coding 3
Mode extension : CM (complete main)
Format settings, Endianness : Big
Codec ID : A_AC3
Duration : 1h 38mn
Bit rate mode : Constant
Bit rate : 640 Kbps
Channel(s) : 6 channels
Channel positions : Front: L C R, Side: L R, LFE
Sampling rate : 48.0 KHz
Bit depth : 16 bits
Compression mode : Lossy
Stream size : 451 MiB (17%)
Title : Audio AC3
Language : English
Default : No
Forced : No

Text #1
ID : 4
Format : ASS
Codec ID : S_TEXT/ASS
Codec ID/Info : Advanced Sub Station Alpha
Compression mode : Lossless
Title : Sub Forced
Language : Italian
Default : Yes
Forced : Yes

Text #2
ID : 5
Format : ASS
Codec ID : S_TEXT/ASS
Codec ID/Info : Advanced Sub Station Alpha
Compression mode : Lossless
Title : Sub
Language : Italian
Default : No
Forced : No

Text #3
ID : 6
Format : ASS
Codec ID : S_TEXT/ASS
Codec ID/Info : Advanced Sub Station Alpha
Compression mode : Lossless
Title : Sub
Language : English
Default : No
Forced : No

Menu
00:00:00.000 : en:Opening Logo
00:00:15.215 : en:The Clone Wars
00:02:33.186 : en:Dispatching a Messenger
00:03:22.468 : en:Battle Position
00:07:11.898 : en:The New Padawan
00:10:22.121 : en:The Sith Conspire
00:10:51.350 : en:Rex and Ahsoka
00:13:03.716 : en:Planning the Strike
00:14:32.371  : en:Scout Report
00:15:21.186 : en:Beneath the Shields
00:17:02.421 : en:The Battle Is Joined
00:21:00.759 : en:Reinforcements Arrive
00:21:36.495 : en:Surrounded by Droids
00:23:10.822 : en:The Negotiator
00:25:20.218 : en:Master and Apprentice
00:26:16.541 : en:New Assignments
00:28:08.319 : en:Return of the Hunters
00:29:27.065 : en:War Stories
00:31:07.966 : en:Obi-Wan and Jabba
00:33:02.613 : en:Vertical Assault
00:38:42.687 : en:Inside the Monastery
00:41:29.119 : en:Dooku's Play
00:42:35.452 : en:Securing the Huttlet
00:44:16.587 : en:Proof of Treachery
00:45:06.036 : en:Separatist Counterassault
00:47:39.990 : en:Breaching the Castle
00:49:29.266 : en:Ventress in Control
00:50:32.229 : en:Launch All Fighters
00:54:47.984 : en:Spice Freighter
00:56:20.710 : en:Last Stand
00:57:50.500 : en:The Mission Comes First
01:01:47.537 : en:Pursuit of the Twilight
01:04:05.308 : en:Obi-Wan vs. Ventress
01:06:16.539 : en:Through Hyperspace
01:08:05.815 : en:The Lies of Dooku
01:09:24.226 : en:Dogfight Over Tattoine
01:13:35.043 : en:Grand Adventure of Politics
01:15:36.298 : en:Stranded in the Desert
01:16:27.516 : en:Ziro the Hutt
01:17:32.314 : en:Padmé Confronts Ziro
01:19:08.710 : en:Exposing the Truth
01:23:05.146 : en:A Call for Help
01:23:51.326 : en:Separate Duels
01:27:36.918 : en:Showdown
01:29:49.150 : en:Conspiracy Revealed/Reunion
01:33:55.162 : en:End Credits

Sharing Widget


Download torrent
Size: 2.6 GB
seeders:5
leechers:0
Star Wars The Clone Wars ITA ENG AC3 BDRip 1080p X264 ZMachine - (2791728742 Bytes)



To share this torrent use the code below and insert it into comments, status messages, forum posts or your signature.

Torrent: Star Wars The Clone Wars ITA ENG AC3 BDRip 1080p X264 ZMachine

Trackers

tracker name
http://tracker.tntvillage.scambioetico.org:2710/announce
udp://tracker.tntvillage.scambioetico.org:2710/announce
udp://11.rarbg.com:2710/announce
udp://9.rarbg.com:2710/announce
http://exodus.desync.com:6969/announce
udp://exodus.desync.com:6969/announce
udp://tracker.istole.it:80/announce
udp://tracker.prq.to/announce
udp://tracker.token.ro:80/announce
udp://tracker.publicbt.com:80/announce
udp://open.demonii.com:1337/announce
udp://tracker.openbittorrent.com:80/announce
udp://tracker.zer0day.to:1337/announce
udp://tracker.leechers-paradise.org:6969/announce
udp://coppersurfer.tk:6969/announce
µTorrent compatible trackers list

Locations

name
KickassTorrents
Torrent hash: 2C80A80A3AB91BDC421539C56C72BAA462C7569D

ᕦ( ▨̅ ͜▨̅ )ᕥ SPECIAL DEAL - OFFER ᕦ( ▨̅ ͜▨̅ )ᕥ
strongly advises you to use Nord while downloading torrents.
Nord is the safest on the market, and the fastest as well.
No IP Log is saved using Nord, avoid other providers and choose the safest one.
Click here and buy Nord it's on rebates today!
We were able to verify your IP: 3.234.208.66, country: United States.
If we can do that, others can too, protect your privacy with Nord.
is trying the best for you!
ᕦ( ▨̅ ͜▨̅ )ᕥ SPECIAL DEAL - OFFER ᕦ( ▨̅ ͜▨̅ )ᕥ

All Comments

*comments box temporarily disabled*
Report a bug