Frozen.2.2019.KORSUB.1080p.UPSCALED.DVDScr.H264.AAC-WHD

seeders: 611
leechers: 275
updated:
Added by SirMadMax in Other
Torrent reliable.


ᕦ( ▨̅ ͜▨̅ )ᕥ SPECIAL DEAL - OFFER ᕦ( ▨̅ ͜▨̅ )ᕥ
strongly advises you to use Nord while downloading torrents.
Nord is the safest on the market, and the fastest as well.
No IP Log is saved using Nord, avoid other providers and choose the safest one.
Click here and buy Nord it's on rebates today!
We were able to verify your IP: 3.234.208.66, country: United States.
If we can do that, others can too, protect your privacy with Nord.
is trying the best for you!
ᕦ( ▨̅ ͜▨̅ )ᕥ SPECIAL DEAL - OFFER ᕦ( ▨̅ ͜▨̅ )ᕥ


Description

 

Plot: Having harnessed her ever-growing power after lifting the dreadful curse of the eternal winter in Frozen (2013), the beautiful conjurer of snow and ice, Queen Elsa, now rules the peaceful kingdom of Arendelle, enjoying a happy life with her sister, Princess Anna. However, a melodious voice that only Elsa can hear keeps her awake, inviting her to the mystical enchanted forest that the sisters’ father told them a long time ago. Now, unable to block the thrilling call of the secret siren, Elsa–along with Anna, Kristoff, Olaf, and Sven–summons up the courage to follow the voice into the unknown, intent on finding answers in the perpetually misty realm in the woods. More and more, an inexplicable imbalance is hurting not only her kingdom but also the neighbouring tribe of Northuldra. Can Queen Elsa put her legendary magical skills to good use to restore peace and stability?

Genre: Animation | Adventure | Comedy | Family | Fantasy | Musical
IMDB Rating: 7.2/10 From 46,477 Users
Directed by: Chris Buck , Jennifer Lee
Starring: Kristen Bell , Idina Menzel , Josh Gad , Jonathan Groff

General
Format                                   : MPEG-4
Format profile                           : Base Media
Codec ID                                 : isom (isom/iso2/avc1/mp41)
File size                                : 2.58 GiB
Duration                                 : 1 h 43 min
Overall bit rate                         : 3 580 kb/s
Writing application                      : ShanaEncoder

Video
ID                                       : 1
Format                                   : AVC
Format/Info                              : Advanced Video Codec
Format profile                           : [email protected] 
Format settings                          : 1 Ref Frames
Format settings, CABAC                   : No
Format settings, Reference frames        : 1 frame
Codec ID                                 : avc1
Codec ID/Info                            : Advanced Video Coding
Duration                                 : 1 h 43 min
Bit rate                                 : 3 384 kb/s
Width                                    : 1 920 pixels
Height                                   : 1 080 pixels
Display aspect ratio                     : 16:9
Frame rate mode                          : Constant
Frame rate                               : 23.976 (24000/1001) FPS
Color space                              : YUV
Chroma subsampling                       : 4:2:0
Bit depth                                : 8 bits
Scan type                                : Progressive
Bits/(Pixel*Frame)                       : 0.068
Stream size                              : 2.44 GiB (95%)
Writing library                          : x264 core 157 r2969 d4099dd
Encoding settings                        : cabac=0 / ref=1 / deblock=1:0:0 / analyse=0x1:0x111 / me=hex / subme=2 / psy=1 / psy_rd=1.00:0.00 / mixed_ref=0 / me_range=16 / chroma_me=1 / trellis=0 / 8x8dct=0 / cqm=0 / deadzone=21,11 / fast_pskip=1 / chroma_qp_offset=0 / threads=6 / lookahead_threads=2 / sliced_threads=0 / nr=0 / decimate=1 / interlaced=0 / bluray_compat=0 / constrained_intra=0 / bframes=0 / weightp=0 / keyint=250 / keyint_min=23 / scenecut=40 / intra_refresh=0 / rc_lookahead=10 / rc=crf / mbtree=1 / crf=21.0 / qcomp=0.60 / qpmin=0 / qpmax=69 / qpstep=4 / ip_ratio=1.40 / aq=1:1.00
Codec configuration box                  : avcC

Audio
ID                                       : 2
Format                                   : AAC LC
Format/Info                              : Advanced Audio Codec Low Complexity
Codec ID                                 : mp4a-40-2
Duration                                 : 1 h 43 min
Bit rate mode                            : Constant
Bit rate                                 : 192 kb/s
Channel(s)                               : 2 channels
Channel layout                           : L R
Sampling rate                            : 48.0 kHz
Frame rate                               : 46.875 FPS (1024 SPF)
Compression mode                         : Lossy
Stream size                              : 142 MiB (5%)

 
 

Sharing Widget


Download torrent
Size: 2.6 GB
seeders:611
leechers:275
Frozen.2.2019.KORSUB.1080p.UPSCALED.DVDScr.H264.AAC-WHD - (2791728742 Bytes)



To share this torrent use the code below and insert it into comments, status messages, forum posts or your signature.

Torrent: Frozen.2.2019.KORSUB.1080p.UPSCALED.DVDScr.H264.AAC-WHD

Trackers

tracker name
udp://tracker.coppersurfer.tk:6969/announce
udp://tracker.open-internet.nl:6969/announce
udp://tracker.leechers-paradise.org:6969/announce
udp://tracker.openbittorrent.com:80/announce
udp://exodus.desync.com:6969/announce
udp://9.rarbg.to:2710/announce
udp://9.rarbg.me:2710/announce
udp://tracker.internetwarriors.net:1337/announce
http://tracker.internetwarriors.net:1337/announce
udp://tracker.opentrackr.org:1337/announce
http://tracker.opentrackr.org:1337/announce
udp://tracker.torrent.eu.org:451/announce
udp://thetracker.org:80/announce
udp://bt.xxx-tracker.com:2710/announce
udp://tracker.zer0day.to:1337/announce
udp://tracker.leechers-paradise.org:6969/announce
udp://coppersurfer.tk:6969/announce
µTorrent compatible trackers list

Locations

name
KickassTorrents
Torrent hash: 5539D18ED25A9F2B4A5518B7575509C31BEC8C82

ᕦ( ▨̅ ͜▨̅ )ᕥ SPECIAL DEAL - OFFER ᕦ( ▨̅ ͜▨̅ )ᕥ
strongly advises you to use Nord while downloading torrents.
Nord is the safest on the market, and the fastest as well.
No IP Log is saved using Nord, avoid other providers and choose the safest one.
Click here and buy Nord it's on rebates today!
We were able to verify your IP: 3.234.208.66, country: United States.
If we can do that, others can too, protect your privacy with Nord.
is trying the best for you!
ᕦ( ▨̅ ͜▨̅ )ᕥ SPECIAL DEAL - OFFER ᕦ( ▨̅ ͜▨̅ )ᕥ

All Comments

*comments box temporarily disabled*
Report a bug