Frozen.2.2019.DVDScr.XviD.B4ND1T69

seeders: 127
leechers: 14
updated:
Added by B4ND1T69 in Other
Torrent reliable.


ᕦ( ▨̅ ͜▨̅ )ᕥ SPECIAL DEAL - OFFER ᕦ( ▨̅ ͜▨̅ )ᕥ
strongly advises you to use Nord while downloading torrents.
Nord is the safest on the market, and the fastest as well.
No IP Log is saved using Nord, avoid other providers and choose the safest one.
Click here and buy Nord it's on rebates today!
We were able to verify your IP: 34.226.244.70, country: United States and you are near by: Ashburn.
If we can do that, others can too, protect your privacy with Nord.
is trying the best for you!
ᕦ( ▨̅ ͜▨̅ )ᕥ SPECIAL DEAL - OFFER ᕦ( ▨̅ ͜▨̅ )ᕥ


Frozen.2.2019.DVDScr.XviD.B4ND1T69 Size: 903.7 MB (947598131 Bytes)

Description

Frozen.2.2019.DVDScr.XviD.B4ND1T69  

 

 Directors: Chris Buck, Jennifer Lee
Writers: Jennifer Lee (screenplay by), Jennifer Lee (story by)
Stars: Kristen Bell, Idina Menzel, Josh Gad

Plot/Story:
Anna, Elsa, Kristoff, Olaf and Sven leave Arendelle to travel to an ancient, autumn-bound forest of an enchanted land. They set out to find the origin of Elsa's powers in order to save their kingdom.

General
Complete name : Frozen.2.2019.DVDScr.XviD.B4ND1T69.avi
Format : AVI
Format/Info : Audio Video Interleave
File size : 904 MiB
Duration : 1 h 43 min
Overall bit rate : 1 224 kb/s
Subtitles : Yes...Included

Video
ID : 0
Format : MPEG-4 Visual
Format profile : Advanced [email protected] 
Format settings, BVOP : 2
Format settings, QPel : No
Format settings, GMC : No warppoints
Format settings, Matrix : Default (H.263)
Codec ID : XVID
Codec ID/Hint : XviD
Duration : 1 h 43 min
Bit rate : 1 083 kb/s
Width : 688 pixels
Height : 288 pixels
Display aspect ratio : 2.40:1
Frame rate : 23.976 (24000/1001) FPS
Color space : YUV
Chroma subsampling : 4:2:0
Bit depth : 8 bits
Scan type : Progressive
Compression mode : Lossy
Bits/(Pixel*Frame) : 0.228
Stream size : 799 MiB (88%)
Writing library : XviD 64

Audio
ID : 1
Format : MPEG Audio
Format version : Version 1
Format profile : Layer 3
Codec ID : 55
Codec ID/Hint : MP3
Duration : 1 h 43 min
Bit rate mode : Constant
Bit rate : 128 kb/s
Channel(s) : 2 channels
Sampling rate : 48.0 kHz
Compression mode : Lossy
Stream size : 94.5 MiB (10%)
Alignment : Aligned on interleaves
Interleave, duration : 24 ms (0.58 video frame)

Screenshots:  
https://i.imgur.com/WQYJX9x.png
https://i.imgur.com/kMwUpLJ.png
https://i.imgur.com/Vp5tGfJ.png
https://i.imgur.com/oYDYcYf.png
https://i.imgur.com/QxpMA2E.png
https://i.imgur.com/blIW9ER.png
https://i.imgur.com/Iydoqls.png
https://i.imgur.com/3ZtOZ52.png
 
 
 
 
 
 
 
 
 
Please Seed For As Long As Possible
Or At Least 1:1 Ratio...Thanks
Enjoy Peeps 

Sharing Widget


Download torrent
Size: 903.7 MB
seeders:127
leechers:14
Frozen.2.2019.DVDScr.XviD.B4ND1T69 - (947598131 Bytes)



To share this torrent use the code below and insert it into comments, status messages, forum posts or your signature.

Torrent: Frozen.2.2019.DVDScr.XviD.B4ND1T69

Trackers

tracker name
udp://tracker.coppersurfer.tk:6969/announce
udp://tracker.pirateparty.gr:6969/announce
udp://tracker.opentrackr.org:1337/announce
udp://tracker.tiny-vps.com:6969/announce
udp://open.demonii.si:1337/announce
udp://tracker.torrent.eu.org:451/announce
udp://tracker.leechers-paradise.org:6969/announce
udp://tracker.zer0day.to:1337/announce
udp://tracker.leechers-paradise.org:6969/announce
udp://coppersurfer.tk:6969/announce
µTorrent compatible trackers list

Locations

name
KickassTorrents
Torrent hash: 48717F0806A4534A335A4F19BBADB131494BA901

ᕦ( ▨̅ ͜▨̅ )ᕥ SPECIAL DEAL - OFFER ᕦ( ▨̅ ͜▨̅ )ᕥ
strongly advises you to use Nord while downloading torrents.
Nord is the safest on the market, and the fastest as well.
No IP Log is saved using Nord, avoid other providers and choose the safest one.
Click here and buy Nord it's on rebates today!
We were able to verify your IP: 34.226.244.70, country: United States and you are near by: Ashburn.
If we can do that, others can too, protect your privacy with Nord.
is trying the best for you!
ᕦ( ▨̅ ͜▨̅ )ᕥ SPECIAL DEAL - OFFER ᕦ( ▨̅ ͜▨̅ )ᕥ

All Comments

*comments box temporarily disabled*
Report a bug